• Hola, con los nuevos cambios del sitio he puesto diferentes tipos de publicidad que podrian resultar algo molestas. Sin embargo, luego de registrarte e interactuar un poco con la pagina, van a ser reemplazados por otros mas sutiles y pequeños! * A mi tampoco me gusta la publicidad, pero es una de las piezas para que el sitio esté disponible. Si bloqueas la publicidad, probá desactivarla unos dias.
    Gracias

[ APP ] Grabar videos en ALTA DEFINICION !!!

Estado
Cerrado para nuevas respuestas.
#1
Grabar videos en ALTA CALIDAD !!!

Si gente !!! encontre la app que nos permitira grabar videos en alta definicion!

Se llama DamCam2 para el backflip, tienen que ser ROOT para poder usarlo.

DamCam2 para Backflip

VERSION *****EADA ACA: DAMCAM2 ***** POR dady2210

VERSION DEBUG (PARA LOS QUE TENGAN PROBLEMAS): DamCam2 debug (***** por dady2210)

Mirror version debug

Para usarlo tienen que hacer un clic a la pantalla, para activar el flash tienen que presionar el boton atras, con el boton menu les aparecera distintos efectos de para los ambientes (fluorecente, incandecente, etc.)

Atencion! a algunos al empezar a grabar notaran una mezcla de la primera imagen grabada con lo que estan grabando, pero eso no quiere decir que se grabe asi, luego de la segunda grabacion no verán más ese deface de imagenes.

Se guardan en sdcard/videos

AVISO!: se han reportado Force Closing de la app en algunos backflips, yo tuve la suerte de no tener ese problema.

Ahora les dejo un video mio grabado con la app:

http://www.youtube.com/watch?v=MZ8MBZIpi7A

No he probado todavia el tema del sonido que graba, les voy a pedir que graben (a los que les funcione la app) unos videos y subanlan para que veamos que tal.

Depende de la memoria ram y velocidad del reloj se les vera lag en las filmaciones, si ven en el video tiene un par de lags pequeños, probemos entre todos !

Espero que les sirva, si sale bien esto pido sticky! jaja

Saludos

Nuevo aviso!: probe con varias grabaciones, comprobe que la primera grabacion al entrar a la app no graba nada, solo se ven lineas verdes y negras, luego de la segunda grabacion sin cerrar la app recien se graban bien los videos.

Agradecimientos a berga.d

Por delmicio:

http://www.youtube.com/watch?v=bP32xTzKLDQ
 
Última edición por un moderador:
#2
Re: Grabar videos en ALTA DEFINICION !!!

uhhhh zarpadoo!! ahora lo pruebo y veo que tal anda.
 


jose0991

The death is just the beginning
#4
Re: Grabar videos en ALTA DEFINICION !!!

Cual es la resolucion maxima en la que graba su cel sin haberle metido mano?
 
OP
OP
E

Emacore

Screamer
#7
Re: Grabar videos en ALTA DEFINICION !!!

jose0991 dijo:
Cual es la resolucion maxima en la que graba su cel sin haberle metido mano?
Con la camara default la resolucion es a 352x288, con esta app tambien graba a 352x288 pero con más definicion de ppp (puntos por pixel) por lo que he notado de diferencia

---------- Post added 19/01/2011 at 03:13 AM ----------

Alexis Aldao dijo:
Funciona en MM????
Podes probar, he visto que lo probaron en un cliq y si funciono, solo le dio un FC al apretar el boton back porque el cliq no tiene flash jaja
 

jose0991

The death is just the beginning
#8
Re: Grabar videos en ALTA DEFINICION !!!

y cual es la resolucion de la pantalla? porque como mucho creo que podriamos hacerlo llegar a 720x480. Aunque creo que habria mucho lag...
 
OP
OP
E

Emacore

Screamer
#9
Re: Grabar videos en ALTA DEFINICION !!!

La resolucion de la pantalla es 320x240, podemos probar pero si habria mucho lag, no a 720x480 sino algo menos
 
OP
OP
E

Emacore

Screamer
#11
Re: Grabar videos en ALTA DEFINICION !!!

Si, pero creo que la rom que estoy usando (speeedyrom v4) me da FC de todas las apps que estan en la SD al hacer un restore :S
 

#12
Re: Grabar videos en ALTA DEFINICION !!!

muy bueno emacore!!!!

a primera impresion grabe un video, lo vi en la pc, y no me parecio hd.. pero dps grabando el mismo video con la app normal del cel, note mucha diferencia..

el audio nose que onda...

el formato sigue siendo 3gp

se re contra re nota la diferencia de calidad!!! es un golazoooo

el audio en el cel se escucha joya, en la pc tambien!
 
Última edición por un moderador:
#14
Re: Grabar videos en ALTA DEFINICION !!!

Emacore la probé!! y graba a la misma resolución pero muchísima mejor calidad ... no tan pixeleada... acá les dejo un vídeo que recién grabé. El ruido es el ventilador.

http://www.youtube.com/watch?v=bP32xTzKLDQ

Info del video:

Format : MPEG-4

Format profile : 3GPP Media Release 4

Codec ID : 3gp4

File size : 3.47 MiB

Duration : 21s 528ms

Overall bit rate : 1 352 Kbps

Law rating : (empty)

Released date : 0

Encoded date : UTC 2011-01-19 06:09:40

Tagged date : UTC 2011-01-19 06:09:40

Classification : (empty)

Video

ID : 2

Format : H.263

Format profile : [email protected]

Codec ID : s263

Duration : 21s 528ms

Bit rate mode : Variable

Bit rate : 1 337 Kbps

Width : 352 pixels

Height : 288 pixels

Display aspect ratio : 1.222

Frame rate mode : Variable

Frame rate : 23.365 fps

Minimum frame rate : 2.618 fps

Maximum frame rate : 30.303 fps

Standard : PAL

Bits/(Pixel*Frame) : 0.565

Stream size : 3.43 MiB (99%)

Writing library : pvmm Revision 1

Language : English

Encoded date : UTC 2011-01-19 06:09:40

Tagged date : UTC 2011-01-19 06:09:40

Audio

ID : 1

Format : AMR

Format/Info : Adaptive Multi-Rate

Format profile : Narrow band

Codec ID : samr

Duration : 21s 500ms

Bit rate mode : Constant

Bit rate : 12.8 Kbps

Channel(s) : 1 channel

Sampling rate : 8 000 Hz

Bit depth : 13 bits

Stream size : 33.6 KiB (1%)

Writing library : pvmm

Language : English

Encoded date : UTC 2011-01-19 06:09:40

Tagged date : UTC 2011-01-19 06:09:40

Espero que se pueda mejorar aun mas .. jeje
 
OP
OP
E

Emacore

Screamer
#15
Re: Grabar videos en ALTA DEFINICION !!!

exemm dijo:
muy bueno emacore!!!!a primera impresion grabe un video, lo vi en la pc, y no me parecio hd.. pero dps grabando el mismo video con la app normal del cel, note mucha diferencia..

el audio nose que onda...

el formato sigue siendo 3gp

se re contra re nota la diferencia de calidad!!! es un golazoooo

el audio en el cel se escucha joya, pero en la pc no...
Bueno pero a comparacion de lo que grababa nuestros backflips, es como alta definicion xD no le podemos pedir mucha mas al pobre celu jaja a lo mejor si algun cambio de resolucion. Tocando un archivo del system se pueden cambiar el formato a mp4. El audio debe ser un tema de los codecs de la pc. Subite tu video !

Che delmicio es verdad no cambia la resolucion pero ya no vemos muy pixelado las grabaciones! igual como dije podemos tocar el tema de la resolucion, mañana me pondre a hacer eso xD
 
Estado
Cerrado para nuevas respuestas.